February 25, 2011

Download movie Sanctum 2011
AdminFebruary 25, 2011 0 comments


Image

Image

Code:
File:: Sanctum.2011.R5.LiNE.AC3.XViD-T0XiC-iNK
Video Source:: ....ELEKTRI4KA
Audio Source:: ....Own
Language::English
IMDB::http://www.imdb.com/title/tt0881320/ 

An underwater cave diving team experiences a life-threatening crisis during an expedition
to the unexplored and least accessible cave system in the world.

Specs::

General

Format                           : AVI
Format/Info                      : Audio Video Interleave
File size                        : 1.41 GiB
Duration                         : 1h 28mn
Overall bit rate                 : 2 278 Kbps
Writing application              : VirtualDubMod 1.5.10.2 (build 2540/release)
Writing library                  : VirtualDubMod build 2540/release

Video
ID                               : 0
Format                           : MPEG-4 Visual
Format profile                   : Advanced Simple@L5
Format settings, BVOP            : Yes
Format settings, QPel            : No
Format settings, GMC             : No warppoints
Format settings, Matrix          : Custom
Codec ID                         : XVID
Codec ID/Hint                    : XviD
Duration                         : 1h 28mn
Bit rate                         : 1 820 Kbps
Width                            : 720 pixels
Height                           : 304 pixels
Display aspect ratio             : 2.35:1
Frame rate                       : 25.000 fps
Color space                      : YUV
Chroma subsampling               : 4:2:0
Bit depth                        : 8 bits
Scan type                        : Progressive
Bits/(Pixel*Frame)               : 0.333
Stream size                      : 1.13 GiB (80%)
Writing library                  : XviD 58

Audio
ID                               : 1
Format                           : AC-3
Format/Info                      : Audio Coding 3
Mode extension                   : CM (complete main)
Codec ID                         : 2000
Duration                         : 1h 28mn
Bit rate mode                    : Constant
Bit rate                         : 448 Kbps
Channel(s)                       : 6 channels
Channel positions                : Front: L C R, Side: L R, LFE
Sampling rate                    : 48.0 KHz
Bit depth                        : 16 bits
Stream size                      : 284 MiB (20%)
Alignment                        : Split accross interleaves
Interleave, duration             : 40 ms (1.00 video frame)
Interleave, preload duration     : 500 ms


Image

Image

Image

Image

Image

Code:
FileServe (1LinK)
http://www.fileserve.com/file/xMCk33Q

Code:
FileServe
http://www.fileserve.com/file/2SPyevZ 
http://www.fileserve.com/file/MAxH6SJ 
http://www.fileserve.com/file/mYJPgZU 
http://www.fileserve.com/file/WySxR6R

Code:
FileSoniC
http://www.filesonic.com/file/114517771/Sant.11.r5-toxic-NightMare.part1.rar 
http://www.filesonic.com/file/114517611/Sant.11.r5-toxic-NightMare.part2.rar 
http://www.filesonic.com/file/114518161/Sant.11.r5-toxic-NightMare.part3.rar 
http://www.filesonic.com/file/114505281/Sant.11.r5-toxic-NightMare.part4.rar

Code:
RapidShare
http://rapidshare.com/files/449487896/Sant.11.r5-toxic-NightMare.part1.rar 
http://rapidshare.com/files/449487870/Sant.11.r5-toxic-NightMare.part2.rar 
http://rapidshare.com/files/449487839/Sant.11.r5-toxic-NightMare.part3.rar 
http://rapidshare.com/files/449486939/Sant.11.r5-toxic-NightMare.part4.rar 

Code:
MegaUpload
http://www.megaupload.com/?d=00FALREW 
http://www.megaupload.com/?d=45JJVQ5Q 
http://www.megaupload.com/?d=9CKSCD71 
http://www.megaupload.com/?d=GN29F2W2
 
No Password , Enjoy-
In Category :

0 comments

Post a Comment