February 26, 2011

The Green Hornet (2011)
AdminFebruary 26, 2011 0 comments


Image

Image

Code:
::::::::::::::Enjoy:Another:Release:From:PCLIVES::::::::::::::

File:: The.Green.Hornet.2011.R5.LiNE.AC3.XViD-PCLIVES
Video Source:: ....ELEKTRI4KA
Audio Source:: ....Own
Language::English
IMDB::
http://www.imdb.com/title/tt0990407/ [rate:6.5] 15,987 votes 
 
Following the death of his father, Britt Reid, heir to his father's large company,
teams up with his late dad's assistant Kato to become a masked crime fighting team.

Specs::

General

Format                           : AVI
Format/Info                      : Audio Video Interleave
File size                        : 1.79 GiB
Duration                         : 1h 54mn
Overall bit rate                 : 2 245 Kbps
Writing application              : VirtualDubMod 1.5.10.2 (build 2540/release)
Writing library                  : VirtualDubMod build 2540/release

Video
ID                               : 0
Format                           : MPEG-4 Visual
Format profile                   : Advanced Simple@L5
Format settings, BVOP            : 2
Format settings, QPel            : No
Format settings, GMC             : No warppoints
Format settings, Matrix          : Custom
Codec ID                         : XVID
Codec ID/Hint                    : XviD
Duration                         : 1h 54mn
Bit rate                         : 1 787 Kbps
Width                            : 720 pixels
Height                           : 304 pixels
Display aspect ratio             : 2.35:1
Frame rate                       : 25.000 fps
Color space                      : YUV
Chroma subsampling               : 4:2:0
Bit depth                        : 8 bits
Scan type                        : Progressive
Compression mode                 : Lossy
Bits/(Pixel*Frame)               : 0.327
Stream size                      : 1.42 GiB (80%)
Writing library                  : XviD 58

Audio
ID                               : 1
Format                           : AC-3
Format/Info                      : Audio Coding 3
Mode extension                   : CM (complete main)
Codec ID                         : 2000
Duration                         : 1h 54mn
Bit rate mode                    : Constant
Bit rate                         : 448 Kbps
Channel(s)                       : 6 channels
Channel positions                : Front: L C R, Side: L R, LFE
Sampling rate                    : 48.0 KHz
Bit depth                        : 16 bits
Compression mode                 : Lossy
Stream size                      : 366 MiB (20%)
Alignment                        : Split accross interleaves
Interleave, duration             : 40 ms (1.00 video frame)
Interleave, preload duration     : 500 ms


Image

Image

Image



Image

Image

Code:
RAPIDSHARE:
http://www.rapidshare.com/files/449823826/W_H_G_H_R5_enc0de.avi.part1.rar 
http://www.rapidshare.com/files/449823712/W_H_G_H_R5_enc0de.avi.part2.rar 
http://www.rapidshare.com/files/449823708/W_H_G_H_R5_enc0de.avi.part3.rar 
http://www.rapidshare.com/files/449823681/W_H_G_H_R5_enc0de.avi.part4.rar 
http://www.rapidshare.com/files/449823588/W_H_G_H_R5_enc0de.avi.part5.rar 

FILESERVE:
http://www.fileserve.com/file/e8uf6hy/W-H-G-H-R5-enc0de.avi.part1.rar 
http://www.fileserve.com/file/mEYUh5m/W-H-G-H-R5-enc0de.avi.part2.rar 
http://www.fileserve.com/file/QAHAUjC/W-H-G-H-R5-enc0de.avi.part3.rar 
http://www.fileserve.com/file/UKpD6xs/W-H-G-H-R5-enc0de.avi.part4.rar 
http://www.fileserve.com/file/BumB83X/W-H-G-H-R5-enc0de.avi.part5.rar 

DUCKLOAD:
http://www.duckload.com/dl/U08w2 

STREAM:
http://www.duckload.com/play/E8B1905127089FA2 

FILESONIC:
http://www.filesonic.com/file/123077521 
http://www.filesonic.com/file/123071011 
http://www.filesonic.com/file/123070731 
http://www.filesonic.com/file/123065651 
http://www.filesonic.com/file/123066491 
 

Image
In Category :

0 comments

Post a Comment