March 15, 2011

Battle Los Angeles 2011 CAM XVID
AdminMarch 15, 2011 0 comments

Image 


 INFO  
Genre: Action | Sci-Fi | Thriller
IMDB rating: 7.1/10
Directed by: Jonathan Liebesman
Starring: Aaron Eckhart, Michelle Rodriguez and Bridget Moynahan

Release Name: Battle Los Angeles 2011 CAM XVID READ NFO LKRG
Size: 1.10gb
Quality: 680×314, 1126 kbps, MP3 128 kbps
Runtime: 110 mins

IMDb: 

Code:
http://www.imdb.com/title/tt1217613/

ªª»_____________________________________________________________________»ªª
ªª                                                                       ªª
ªª                                                                       ªª
                       
                               
  Encoded By .......:Xclusive               
  Runtime ..........:1:50                                                   
  IMDb URL .........:http://www.imdb.com/title/tt1217613/
  Language .........:English
  File Size ........:1.10gb
           
ªªª                                                                     ªªª
ªªªªª_______________________ Audio/Video _____________________________ªªªªª


Video
ID                               : 0
Format                           : MPEG-4 Visual
Format profile                   : Advanced Simple@L5
Format settings, BVOP            : Yes
Format settings, QPel            : No
Format settings, GMC             : No warppoints
Format settings, Matrix          : Custom
Codec ID                         : XVID
Codec ID/Hint                    : XviD
Duration                         : 1h 50mn
Bit rate                         : 1 126 Kbps
Width                            : 680 pixels
Height                           : 314 pixels
Display aspect ratio             : 2.2:1
Frame rate                       : 25.000 fps
Color space                      : YUV
Chroma subsampling               : 4:2:0
Bit depth                        : 8 bits
Scan type                        : Progressive
Bits/(Pixel*Frame)               : 0.211
Stream size                      : 44.0 MiB (4%)
Writing library                  : XviD 1.2.1 (UTC 2008-12-04)

Audio
ID                               : 1
Format                           : MPEG Audio
Codec ID                         : 55
Codec ID/Hint                    : MP3
Duration                         : 1h 50mn
Bit rate                         : 128 Kbps
Channel(s)                       : 2 channels
Sampling rate                    : 44.1 KHz
Stream size                      : 101 MiB (9%)
Alignment                        : Aligned on interleaves


ªª»_____________________________________________________________________»ªª
ª                          ªªª
ªªªªª_______________________             _____________________________ªªªªª

ªª»_____________________________________________________________________»ªª
ªª     
       
                                                                         ªª
ªª                                                                       ªª
       
.
ªªª                                                                     ªªª
ªªªªª_______________________    Notes    _____________________________ªªªªª

Video:ELEKTRI4KA thanks

Audio:Own

Okay here we go with the first cam for Batlle La the cam it's self was very good had slight issues was dull and kinda blurry  dark scenes had a red glare so adjusted colors and sharpened a tad usual video filters also towards the last 30 minutes or so a big ass head pops up in and out till ending

wasn't that distracting so i didn't bother cropping it the dark scenes had some issues as well but not to many of them so no biggie.

On to audio our audio was pretty decent i choose to lower bass so you can hear the vocals better more important in this movie to pay attention so the real loud effects scenes you will probably hear some light static no biggie.
Also i had to cut about 1 minute from the movie due to our audio missing about 50 minutes in but you don't miss much and towards end about last 20 minutes audio goes oos for about a minute due to russian source missing a few seconds
but once again only for a minute all in all very watchable 2 samples are included showig different audio so no need to ~censored~ if you don't like it wait for line which if noone gets we will do a v2 with line next weekend till then enjoy.
       
ªª»_____________________________________________________________________»ªª
ªª   Have anything we can use? Contact us at if you don't know how
               
               Don't worry about it (:                                    ªª  ªª                                                                       ªª

ªªª                                                                     ªªª
ªªªªª______________________ Greetz/Thanks ____________________________ªªªªª

             Greetz to all other respected RG's out there .
                  Let the Legend Killing Continue. 


 SCREENS 

Image

Image

Image

Image



Image 
Image 
Code:
SiNGLE:
http://www.fileserve.com/file/m8HgYxs

400MB PARTS:
http://www.fileserve.com/file/N3xvMRP
http://www.fileserve.com/file/3QE3jd2
http://www.fileserve.com/file/nBVXzTN
Image 
Code:
SiNGLE:
http://www.filesonic.com/file/217882032

400MB PARTS:
http://www.filesonic.com/file/217881222
http://www.filesonic.com/file/217882182
http://www.filesonic.com/file/217882222
Image 
Code:
400MB PARTS:
http://safelinking.net/d/4cba31fce3
http://safelinking.net/d/340661db90
http://safelinking.net/d/64fd5b524f

DiRECT LiNKS - No CaPTCHA - No PaSSWORD
Image 
Code:
400MB PARTS:
http://bitshare.com/?f=47prvxgc 
http://bitshare.com/?f=vg5d8vyr 
http://bitshare.com/?f=dy07guvs
Image
Code:
400MB PARTS:
http://oron.com/i6l8r6oogidu 
http://oron.com/if1ob0ab72ce 
http://oron.com/tzwhyjj9i8v9
In Category :

0 comments

Post a Comment