April 02, 2011

Movie-Battle Los Angeles 2011 R5 XViD
AdminApril 02, 2011 0 comments

Image 

ImageImage
 Ripper ...........:IMAGiNE                                                                    
                                     URL..........:http://www.imdb.com/title/tt1217613/ 
IMDB Rating.......:6.8/10
 Date......:15/03/11
untime...........:1h 50mn 
Video Codec.......:XVID                                          
Audio Codec.......:MP3                                          
Audio Bitrate.....:128                                          
Subtitles.........:NIL                                            
Resolution........:720 x 304 

Language..........:ENGLISH
DETAILS:

Video
ID                               : 0
Format                           : MPEG-4 Visual
Format profile                   : Advanced Simple@L5
Format settings, BVOP            : Yes
Format settings, QPel            : No
Format settings, GMC             : No warppoints
Format settings, Matrix          : Default (MPEG)
Muxing mode                      : Packed bitstream
Codec ID                         : XVID
Codec ID/Hint                    : XviD
Duration                         : 1h 51mn
Bit rate                         : 1 629 Kbps
Width                            : 720 pixels
Height                           : 304 pixels
Display aspect ratio             : 2.35:1
Frame rate                       : 25.000 fps
Color space                      : YUV
Chroma subsampling               : 4:2:0
Bit depth                        : 8 bits
Scan type                        : Progressive
Compression mode                 : Lossy
Bits/(Pixel*Frame)               : 0.298
Stream size                      : 1.27 GiB (92%)
Writing library                  : XviD 61

Audio
ID                               : 1
Format                           : MPEG Audio
Format version                   : Version 1
Format profile                   : Layer 3
Codec ID                         : 55
Codec ID/Hint                    : MP3
Duration                         : 1h 51mn
Bit rate mode                    : Constant
Bit rate                         : 128 Kbps
Channel(s)                       : 2 channels
Sampling rate                    : 44.1 KHz
Compression mode                 : Lossy
Stream size                      : 102 MiB (7%)
Alignment                        : Split accross interleaves
Interleave, duration             : 40 ms (1.00 video frame)
Interleave, preload duration     : 500 ms




SOURCES:

VIDEO: DVD 9 ELEKTRI4KA ................ Thanks
AUDIO: Thankd m8ty ;-)

NOTES:

Here we go with a really nice r5 of this..........Battle: Los Angeles

Source was very nice as it was ,but we did a little bit of filtering....increased the colour,add
more sharpeness,cropped and resized,changed the brightness and contrast etc....
Audio we just needed to sync to our rip ...and also its complete line inc credits.




Image

Image

Image

Image

Image

Image

Code:
FileServe (1LinK)
http://www.fileserve.com/file/gDWXyU7

OR

http://www.fileserve.com/file/YE9GT9V


Code:
FileSoniC
http://www.filesonic.com/file/455719124/Really.SooNN.part1.rar
http://www.filesonic.com/file/455724374/Really.SooNN.part2.rar
http://www.filesonic.com/file/455722794/Really.SooNN.part3.rar 


Code:
FileServe
http://www.fileserve.com/file/ew6Cbyt
http://www.fileserve.com/file/KWxMHbu
http://www.fileserve.com/file/UsjU3HK


Code:
BitShare
http://bitshare.com/files/nlsf202o/Really.SooNN.part1.rar
http://bitshare.com/files/w3jy6smc/Really.SooNN.part2.rar
http://bitshare.com/files/bzfeaw3b/Really.SooNN.part3.rar


Code:
UserShare
http://www.usershare.net/izt8o7v136ke/Really.SooNN.part1.rar
http://www.usershare.net/vtsa97ub5mxl/Really.SooNN.part2.rar
http://www.usershare.net/5he0u4qqvnjc/Really.SooNN.part3.rar


Code:
RapidShare
http://rapidshare.com/files/455459284/Really.SooNN.part1.rar
http://rapidshare.com/files/455459286/Really.SooNN.part2.rar
http://rapidshare.com/files/455459225/Really.SooNN.part3.rar


Code:
MegaUpload
http://www.megaupload.com/?d=4GF7KFDR
http://www.megaupload.com/?d=VTT0JAFJ
http://www.megaupload.com/?d=Y3MW92W4


Code:
No Password , Enjoy


0 comments

Post a Comment