March 15, 2011

Rango 2011 TS XViD-nCODE [ 699mb ]
AdminMarch 15, 2011 0 comments



Image

Image

Image

  
Complete name                    : Rango 2011 TS XViD-nCODE
Format                           : AVI
Format/Info                      : Audio Video Interleave
File size                        : 700 MiB
Duration                         : 1h 41mn
Overall bit rate                 : 962 Kbps
Writing application              : VirtualDubMod 1.5.10.2 (build 2542/release)
Writing library                  : VirtualDubMod build 2542/release

Video
ID                               : 0
Format                           : MPEG-4 Visual
Format profile                   : Advanced Simple@L5
Format settings, BVOP            : 1
Format settings, QPel            : No
Format settings, GMC             : No warppoints
Format settings, Matrix          : Default (H.263)
Muxing mode                      : Packed bitstream
Codec ID                         : XVID
Codec ID/Hint                    : XviD
Duration                         : 1h 41mn
Bit rate                         : 825 Kbps
Width                            : 608 pixels
Height                           : 256 pixels
Display aspect ratio             : 2.35:1
Frame rate                       : 25.000 fps
Color space                      : YUV
Chroma subsampling               : 4:2:0
Bit depth                        : 8 bits
Scan type                        : Progressive
Compression mode                 : Lossy
Bits/(Pixel*Frame)               : 0.212
Stream size                      : 600 MiB (86%)
Writing library                  : XviD 58

Audio
ID                               : 1
Format                           : MPEG Audio
Format version                   : Version 1
Format profile                   : Layer 3
Mode                             : Joint stereo
Mode extension                   : MS Stereo
Codec ID                         : 55
Codec ID/Hint                    : MP3
Duration                         : 1h 41mn
Bit rate mode                    : Constant
Bit rate                         : 128 Kbps
Channel(s)                       : 2 channels
Sampling rate                    : 44.1 KHz
Compression mode                 : Lossy
Stream size                      : 93.1 MiB (13%)
Alignment                        : Split accross interleaves
Interleave, duration             : 40 ms (1.00 video frame)
Interleave, preload duration     : 500 ms

Source was V3-Imagine.(thanks to Imagine)
Image

Image

Image

Image

Image

Image 


http://d01.megashares.com/?d01=tsHO1Xq

RAPIDSHARE-
 
http://rapidshare.com/files/455171736/RN60TS699nC0DE.part1.rar 
http://rapidshare.com/files/455171841/RN60TS699nC0DE.part2.rar


Image
 
http://www.megaupload.com/?d=QAE2Z08N

Image
 
http://www.fileserve.com/file/rBpJYBu/Rango 2011 TS XViD-nCODE.avi 
OR
http://safelinking.net/d/cef994588d

FILESONIC-
http://www.filesonic.com/file/421915731/Rango.2011.TS.XViD-nCODE.avi 
OR
http://safelinking.net/d/920a07a886

Image 
In Category :

0 comments

Post a Comment