April 28, 2011

FAST AND FURIOUS 5 FAST FIVE 2011 450 mb ONLY
AdminApril 28, 2011 0 comments

Fast Five (2011) TS V3 XViD – IMAGiNE [1Link]


Image
Image



iNFO:
Code:

Fast.and.Furious.5.Rio.Heist.2011.NEW.HQ.VIDEO.TS.XviD.AC3.Hive-CM8


Thx Hive

CM8 Doing It Right The First Time

Sources:

Video: New High Quality German 720P TS PFD thx


Audio: Imagines Line thx

Encode:

the german ts was very good, no shaking,no flickering, nothing cropped and full movie.
The scenes at daylight were very good didnt touch them much, there are some darker scenes
which i brightened up a bit, looks very good now, could almost pass as a screener.
I synced the line nearly lipsync, was a lot of work all together around 10h work at least.
will do till the retail comes around.

Video: 720x304 @bitrate 1900 2pass
Audio: English AC3 2.0 Stereo


http://www.imdb.com/title/tt1596343/


General
Complete name                    : Fast.and.Furious.5.Kmovies.2011.NEW.HQ.VIDEO.TS.XviD.AC3.Hive-CM8.avi
Format                           : AVI
Format/Info                      : Audio Video Interleave
File size                        : 1.76 GiB
Duration                         : 1h 56mn
Overall bit rate                 : 2 167 Kbps
Writing application              : Nandub v1.0rc2
Writing library                  : Nandub build 1853/release

Video
ID                               : 0
Format                           : MPEG-4 Visual
Format profile                   : Advanced Simple@L5
Format settings, BVOP            : 2
Format settings, QPel            : Yes
Format settings, GMC             : No warppoints
Format settings, Matrix          : Default (H.263)
Muxing mode                      : Packed bitstream
Codec ID                         : XVID
Codec ID/Hint                    : XviD
Duration                         : 1h 56mn
Bit rate                         : 1 901 Kbps
Width                            : 720 pixels
Height                           : 304 pixels
Display aspect ratio             : 2.35:1
Frame rate                       : 25.000 fps
Color space                      : YUV
Chroma subsampling               : 4:2:0
Bit depth                        : 8 bits
Scan type                        : Progressive
Compression mode                 : Lossy
Bits/(Pixel*Frame)               : 0.347
Stream size                      : 1.55 GiB (88%)
Writing library                  : XviD 1.2.1 (UTC 2008-12-04)

Audio
ID                               : 1
Format                           : AC-3
Format/Info                      : Audio Coding 3
Mode extension                   : CM (complete main)
Codec ID                         : 2000
Duration                         : 1h 56mn
Bit rate mode                    : Constant
Bit rate                         : 256 Kbps
Channel(s)                       : 2 channels
Channel positions                : Front: L R
Sampling rate                    : 48.0 KHz
Bit depth                        : 16 bits
Compression mode                 : Lossy
Stream size                      : 213 MiB (12%)
Alignment                        : Split accross interleaves
Interleave, duration             : 40 ms (1.00 video frame)
Interleave, preload duration     : 500 ms



Vin Diesel ... Dominic Toretto
Paul Walker ... Brian O'Conner
Jordana Brewster ... Mia
Tyrese Gibson ... Roman
Ludacris ... Tej (as Chris 'Ludacris' Bridges)
Matt Schulze ... Vince
Dwayne Johnson ... Hobbs 



Image
Image
Image
Image
Image

Image

Code:
https://rapidshare.com/files/1869797176/Fast.and.Furious.5.Kmovies.2011.NEW.HQ.VIDEO.TS.XviD.AC3.Hive-CM8.rar

Code:
https://rapidshare.com/files/1658646932/nLiVE-Fiv3-v3-IMAGiNE.rar
Code:
http://www.duckload.com/download/6136852/nLiVE-Fiv3-v3-IMAGiNE.rar
Code:
http://www.wupload.com/file/3700925/nLiVE-Fiv3-v3-IMAGiNE.rar

Fileserve:

Code:
http://www.fileserve.com/file/w6gYvHu






OR


FAST AND FURIOUS 5 :  - FAST FIVE (2011)  
THE UNiTED | filtered-TS | 450MB | PCLIVES 

Image 


Image 


Image 

Image 

Image 

Image 

Image 

Image 

Image 

Image 

Image 

Image 

Image 


Image 


IMDB Ratings : 8.1 / 10 | 2,764 votes | Top 250: # none 

Code:
http://www.imdb.com/title/tt1596343/


Plot Outline: 
Former cop Brian O'Conner partners with ex-con Dom Toretto on the opposite side of the law. Since Brian and Mia Toretto broke Dom out of custody, they've blown across many borders to elude authorities. Now backed into a corner in Rio de Janeiro, they must pull one last job in order to gain their freedom. As they assemble their elite team of top racers, the unlikely allies know their only shot of getting out for good means confronting the corrupt businessman who wants them dead. But he's not the only one on their tail. Hard-nosed federal agent Luke Hobbs never misses his target. When he is assigned to track down Dom and Brian, he and his strike team launch an all-out assault to capture them. But as his men tear through Brazil, Hobbs learns he can't separate the good guys from the bad. Now, he must rely on his instincts to corner his prey... before someone else runs them down first. 

RELEASE NOTES: 

Code:
[FORMAT]:.......................[ Matroska
[AWARDS]:.......................[ None
[GENRE]:........................[ Action | Crime | Drama | Thriller
[FILE SIZE]:....................[ 574 MiB
[NO OF CDs]:....................[ 1
[RESOLUTION]:...................[ 640*352
[ASPECT RATIO]:.................[ 16:9
[FRAME RATE]:...................[ 23.976 fps
[LANGUAGE ]:....................[ English
[SUBTITLES]:....................[ muxed : englisg
[ORIGINAL RUNTIME]:.............[ 01:58:00
[RELEASE RUNTIME]:..............[ 01:58:00
[SOURCE]:.......................[ readnfo.ts.imagine
[SOURCE NFO]:...................[ IMAGiNE bringing you another release..........Fast & Furious 5
Right here we go we our first release of FF5 ...except more shortly ;-) For this we were given two lots of video but both suffered the same issue.....cropping. Quality wise as in colours, brightness etc....the videos were good,so shame really.
Any way to get this the best we could we had to slice and dice both releases together into one....The camera moved several times so we need to cut and rotate and then crop differently for each part, but by doing this the AR on parts goes off due to keeping the same res so we could append afterwards.
We also cleaned up the video as in the colouring,contrast etc.....
Also got to warn you the crop is still bad in some parts specially arounf 1hr to 1hr 27mins and also alot of the subs are cropped to hell.....but still watchable. Audio was a ~censored~ to do for several reasons but we got there or dam close in the end ....and yes its line audio :P


Image 

Sample: 
Code:
http://safelinking.net/p/42f6c02ca3


Movie: 
All links interchangeable 




Image 
Code:
FILESONIC SINGLE : http://safelinking.net/p/f492d23387
FILESERVE SINGLE : http://safelinking.net/p/848e2498ae


Image 
Code:
FILESONIC : http://safelinking.net/p/cb1096375c


Image 
Code:
FILESERVE : http://safelinking.net/p/7e17b4bb22


Image 
Code:
RAPIDSHARE : http://safelinking.net/p/4c0bb09a30


Password: 
Code:
ultrascorp


Subtitles 
Code:
none





In Category :

0 comments

Post a Comment